imdb
rating

7.6
Blindspot

Blindspot (2015)

Action, Crime, Drama

Full description

Blindspot.S02E11.HDTV.X264.AAC-MVGEE [Isohunt.to] Verified

Size 206.259 MB   85 seeders     Added 2017-01-12 08:20:47

Blindspot.S02E11.HDTV.X264.AAC-MVGEE

http://www.imdb.com/title/tt4474344/

A woman with no memories of her past (Jane Doe), is found naked in Times Square with her body fully covered in intricate tattoos. Her discovery sets off a vast and complex mystery that immediately ignites the attention of the FBI, which begins to follow the road map of her tattoos into a larger conspiracy of crime, while bringing her closer to discovering the truth about her identity

Year: 2015-
Genres: Crime, Drama, Mystery 
Creator: Martin Gero
Stars: Sullivan Stapleton, Jaimie Alexander, Rob Brown
MPA Rating: TV-14 
Runtime: 42min
Rating: 7.6

[img]image[/img]

Duration: 00:43:00.57, start: 0.021333, bitrate: 639 kb/s
Stream #0:0(und): Video: h264 (Main) (avc1 / 0x31637661), yuv420p, 720x404 [SAR 1:1 DAR 180:101], 503 kb/s, 23.98 fps, 23.98 tbr, 24k tbn
Stream #0:1(und): Audio: aac (LC) (mp4a / 0x6134706D), 48000 Hz, stereo, fltp, 129 kb/s (default)
Blindspot.S02E11.HDTV.X264.AAC-MVGEE.mp4 206.259 MB
Gathering some info...

Register and log in Isohunt and see no captcha anymore!

4000 symbols left
Hash 9a831d6daa7f7c4890d0dd9fe1fe1c4c12fff59c

Related torrents for "Blindspot.S02E11.HDTV.X264.AAC-MVGEE [Isohunt.to]"

Torrent search:

season 02 x264 hdtv episode 11